!!Внимание!!
Для того чтобы лучше использовать наши ресурсы, нажмите здесь ,чтобы стать одним из участников нашего проэкта!
Donna Eden - Energy Medicine, The Essential Techniques ! » Фильмы,музыка,софт,книги бесплатно - Nemezisworld.com
Nemezisworld.com - самый полный обзор сети!
Пароль:
Войти
АВТОРИЗАЦИЯ С ПОМОЩЬЮ

Стартовая Избранное Главная Контакты Карта сайта
Где мы?
» » » Donna Eden - Energy Medicine, The Essential Techniques !

ОБЛАКО ТЕГОВ

Показать все теги

Наш выбор

PEКЛАМА

Комментарии: 0 Просмотров: 2 Автор: oaxino Дата: 15-09-2017, 22:03


Это не составит большого труда, 
а нам в свою очередь, 
позволит больше радовать Вас новыми публикациями.
Donna Eden - Energy Medicine, The Essential Techniques !

Donna Eden - Energy Medicine, The Essential Techniques
3xDVDRip | English | AVI + PDF Guides | 720 x 480 | AVC ~965 kbps | 29.970 fps
MP3 | 128 Kbps | 44.1 KHz | 2 channels | 05:53:31 | 1.93 GB
Genre: eLearning Video / Self Improvement, Health

Learn How to Move Energies for Increased Health, Vitality, and Joy! By Donna Eden with David Feinstein, Ph. D. 3-DVD Set, 6 hours or Stream it Anywhere Online In this video, Donna systematically demonstrates most of the Techniques in the Energy Medicine book. The six-hour video training series is designed to supplement the book or be used as a stands alone video. It brings Donna's energy into your living room, making the self-care techniques presented in the book COME ALIVE with clear instructions and vivid demonstrations. It is a very well-organized and easy to follow presentation of the basic methods used in Energy Medicine.

In this video you will learn the basic techniques of energy testing and the Daily Routine to keep your energies humming.

Learn How To:

Improve memory, learning skills, and overall vitality.
Strengthen the immune, circulatory, lymphatic, and respiratory systems.
Work with your chakras, meridians, aura, Strange Flows, and the Five Elements.

An Overview of the Topics Covered in the 3-Video Series:

Energy Testing
Daily Energy Routine
Neurolymphatic Reflex Points
Neurovascular Points
The Aura
Energy Cross-Overs
Tracing the Meridians
Rebalancing a Meridian by:
Stretching its Alarm Point
Flushing it
Massaging its Neurolymphatic Points
Holding its Neurovascular Points
Holding its Acupuncture Strengthening Points
Correcting Homolateral Energies
The Ileocecal Valve
Alarm Points
The Diaphragm
Nuances of Energy Testing
Surrogate Testing
The Immune System: Triple Warmer/Spleen
The Chakras
The Five Rhythms
Energy Techniques for Reducing Pain
Relief from a Tension Headache
Eye Pattern Reprogramming for Releasing Stored Stress
Healing the Eyes
Tapping Fear Out of Your Body
Tapping Joy into Your Body
Reprogramming Your Physical and Emotional Habits

General
Complete name : Donna Eden - P2 - 09 - Nuances of Energy Testing.avi
Format : AVI
Format/Info : Audio Video Interleave
File size : 151 MiB
Duration : 19 min 6 s
Overall bit rate : 1 105 kb/s
Writing library : Boilsoft Joiner build 2411/release

Video
ID : 0
Format : MPEG-4 Visual
Format settings, BVOP : 1
Format settings, QPel : No
Format settings, GMC : No warppoints
Format settings, Matrix : Default (H.263)
Muxing mode : Packed bitstream
Codec ID : DX50
Codec ID/Hint : DivX 5
Duration : 19 min 6 s
Bit rate : 965 kb/s
Width : 720 pixels
Height : 480 pixels
Display aspect ratio : 3:2
Frame rate : 29.970 (30000/1001) FPS
Standard : NTSC
Color space : YUV
Chroma subsampling : 4:2:0
Bit depth : 8 bits
Scan type : Progressive
Compression mode : Lossy
Bits/(Pixel*Frame) : 0.093
Stream size : 132 MiB (87%)
Writing library : DivX 5.1.1 (Maupiti) (UTC 2003-11-19)

Audio
ID : 1
Format : MPEG Audio
Format version : Version 1
Format profile : Layer 3
Codec ID : 55
Codec ID/Hint : MP3
Duration : 19 min 6 s
Bit rate mode : Constant
Bit rate : 128 kb/s
Channel(s) : 2 channels
Sampling rate : 44.1 kHz
Compression mode : Lossy
Delay relative to video : 14 ms
Stream size : 17.5 MiB (12%)
Alignment : Split accross interleaves
Interleave, duration : 33 ms (1.00 video frame)
Interleave, preload duration : 500 ms

Screenshots











Download link:



Links are Interchangeable - No Password - Single Extraction

0 Коммент(ов) »

ДРУГИЕ НОВОСТИ ПО ТЕМЕ

  • Do great things.with Windows 10 in Education
    Do great things with Windows 10 in EducationMP4 | Video: AVC 1280x720 | Audio: AAC 44KHz 2ch | Duration: 48M | 1.17 GBGenre: eLearning | Language: English

  • Design a logo for.FREE in Inkscape
    Design a logo for FREE in InkscapeMP4 | Video: AVC 1280x720 | Audio: AAC 44KHz 2ch | Duration: 2 Hours | Lec: 42 | 264 MBGenre: eLearning | Language: EnglishLearn from an award winning, published logo design professional!

  • Deploying Web Apps.to Azure App Service
    Deploying Web Apps to Azure App ServiceMP4 | Video: AVC 1280x720 | Audio: AAC 44KHz 2ch | Duration: 1 Hour | 1.40 GBGenre: eLearning | Language: English

  • Declarative React Learning React Router.4
    Declarative React: Learning React Router 4MP4 | Video: AVC 1920x1080 | Audio: AAC 44KHz 2ch | Duration: 47M | 1.77 GBGenre: eLearning | Language: English

  • Dealing.With Real-World Data
    Dealing With Real-World DataMP4 | Video: AVC 1280x720 | Audio: AAC 44KHz 2ch | Duration: 41M | 217 MBGenre: eLearning | Language: English


html-cсылка на публикацию
BB-cсылка на публикацию
Прямая ссылка на публикацию
Информация
Посетители, находящиеся в группе Гости, не могут оставлять комментарии к данной публикации.
Крути вверх, тут всё кончилось.

КАЛЕНДАРЬ

«    Сентябрь 2017    »
ПнВтСрЧтПтСбВс
 123
45678910
11121314151617
18192021222324
252627282930 

Мои закладки

Архив новостей

Сентябрь 2017 (1582)
Август 2017 (2127)
Июль 2017 (2575)
Июнь 2017 (2460)
Май 2017 (2596)
Апрель 2017 (2903)

ТОП ЖУРНАЛИСТОВ

volk0894
ICQ:
Публикаций: 13281
SamDel
ICQ:
Публикаций: 11420
didl3
ICQ:
Публикаций: 9564

ГЕОГРАФИЯ САЙТА

СТАТИСТИКА САЙТА

Сайт существует: 2528-й день

( 14) ( 0) ( 10) ( 4) (Подробнее)
Тиц и pr сайта Яндекс.Метрика

ДРУЗЬЯ САЙТА

РЕКОМЕНДУЕМ

 
Главная | Добавить новость | Контакты | Правила сайта | Правообладателям | Карта сайта | RSS 2.0 Nemezis © 2010 Владелец и создатель данного сайта не несёт ответственность за использование ссылок и информации, представленных на этом сайте. На данном сайте представлены исключительно ссылки на другие ресурсы. Данный проект является некоммерческим, поэтому автор не несёт никакой материальной ответственности. Вся информация и ссылки представлены исключительно в ознакомительных целях и предназначены только для просмотра.